  0
SECTION
  2
HEADER
  9
$ACADVER
  1
AC1015
  9
$ACADMAINTVER
 70
    20
  9
$DWGCODEPAGE
  3
ANSI_1252
  9
$INSBASE
 10
0.0
 20
0.0
 30
0.0
  9
$EXTMIN
 10
-9.978869047599999
 20
-6.886457348500001
 30
-1.0
  9
$EXTMAX
 10
9.724999999999999
 20
6.562249999999999
 30
0.0
  9
$LIMMIN
 10
0.0
 20
0.0
  9
$LIMMAX
 10
0.0
 20
0.0
  9
$ORTHOMODE
 70
     0
  9
$REGENMODE
 70
     1
  9
$FILLMODE
 70
     1
  9
$QTEXTMODE
 70
     0
  9
$MIRRTEXT
 70
     1
  9
$LTSCALE
 40
1.0
  9
$ATTMODE
 70
     1
  9
$TEXTSIZE
 40
0.2
  9
$TRACEWID
 40
0.05
  9
$TEXTSTYLE
  7
Standard
  9
$CLAYER
  8
0
  9
$CELTYPE
  6
Continuous
  9
$CECOLOR
 62
   256
  9
$CELTSCALE
 40
1.0
  9
$DISPSILH
 70
     0
  9
$DIMSCALE
 40
1.0
  9
$DIMASZ
 40
0.18
  9
$DIMEXO
 40
0.0625
  9
$DIMDLI
 40
0.38
  9
$DIMRND
 40
0.0
  9
$DIMDLE
 40
0.0
  9
$DIMEXE
 40
0.18
  9
$DIMTP
 40
0.0
  9
$DIMTM
 40
0.0
  9
$DIMTXT
 40
0.18
  9
$DIMCEN
 40
0.09
  9
$DIMTSZ
 40
0.0
  9
$DIMTOL
 70
     0
  9
$DIMLIM
 70
     0
  9
$DIMTIH
 70
     1
  9
$DIMTOH
 70
     1
  9
$DIMSE1
 70
     0
  9
$DIMSE2
 70
     0
  9
$DIMTAD
 70
     0
  9
$DIMZIN
 70
     0
  9
$DIMBLK
  1

  9
$DIMASO
 70
     1
  9
$DIMSHO
 70
     1
  9
$DIMPOST
  1

  9
$DIMAPOST
  1

  9
$DIMALT
 70
     0
  9
$DIMALTD
 70
     2
  9
$DIMALTF
 40
25.4
  9
$DIMLFAC
 40
1.0
  9
$DIMTOFL
 70
     0
  9
$DIMTVP
 40
0.0
  9
$DIMTIX
 70
     0
  9
$DIMSOXD
 70
     0
  9
$DIMSAH
 70
     0
  9
$DIMBLK1
  1

  9
$DIMBLK2
  1

  9
$DIMSTYLE
  2
Standard
  9
$DIMCLRD
 70
     0
  9
$DIMCLRE
 70
     0
  9
$DIMCLRT
 70
     0
  9
$DIMTFAC
 40
1.0
  9
$DIMGAP
 40
0.09
  9
$DIMJUST
 70
     0
  9
$DIMSD1
 70
     0
  9
$DIMSD2
 70
     0
  9
$DIMTOLJ
 70
     1
  9
$DIMTZIN
 70
     0
  9
$DIMALTZ
 70
     0
  9
$DIMALTTZ
 70
     0
  9
$DIMUPT
 70
     0
  9
$DIMDEC
 70
     4
  9
$DIMTDEC
 70
     4
  9
$DIMALTU
 70
     2
  9
$DIMALTTD
 70
     2
  9
$DIMTXSTY
  7
Standard
  9
$DIMAUNIT
 70
     0
  9
$DIMADEC
 70
     0
  9
$DIMALTRND
 40
0.0
  9
$DIMAZIN
 70
     0
  9
$DIMDSEP
 70
     0
  9
$DIMATFIT
 70
     3
  9
$DIMFRAC
 70
     0
  9
$DIMLDRBLK
  1

  9
$DIMLUNIT
 70
     2
  9
$DIMLWD
 70
     0
  9
$DIMLWE
 70
     0
  9
$DIMTMOVE
 70
     0
  9
$LUNITS
 70
     2
  9
$LUPREC
 70
     4
  9
$SKETCHINC
 40
0.1
  9
$FILLETRAD
 40
0.0
  9
$AUNITS
 70
     0
  9
$AUPREC
 70
     0
  9
$MENU
  1
.
  9
$ELEVATION
 40
0.0
  9
$PELEVATION
 40
0.0
  9
$THICKNESS
 40
0.0
  9
$LIMCHECK
 70
     0
  9
$CHAMFERA
 40
0.0
  9
$CHAMFERB
 40
0.0
  9
$CHAMFERC
 40
0.0
  9
$CHAMFERD
 40
0.0
  9
$SKPOLY
 70
     0
  9
$TDCREATE
 40
2453353.508792488
  9
$TDUCREATE
 40
2453353.717125822
  9
$TDUPDATE
 40
2456731.452792153
  9
$TDUUPDATE
 40
2456731.661125486
  9
$TDINDWG
 40
0.0452092014
  9
$TDUSRTIMER
 40
0.0452091319
  9
$USRTIMER
 70
     1
  9
$ANGBASE
 50
0.0
  9
$ANGDIR
 70
     0
  9
$PDMODE
 70
     0
  9
$PDSIZE
 40
0.0
  9
$PLINEWID
 40
0.0
  9
$SPLFRAME
 70
     0
  9
$SPLINETYPE
 70
     6
  9
$SPLINESEGS
 70
     8
  9
$HANDSEED
  5
E9
  9
$SURFTAB1
 70
     6
  9
$SURFTAB2
 70
     6
  9
$SURFTYPE
 70
     6
  9
$SURFU
 70
     6
  9
$SURFV
 70
     6
  9
$UCSBASE
  2

  9
$UCSNAME
  2

  9
$UCSORG
 10
0.0
 20
0.0
 30
0.0
  9
$UCSXDIR
 10
1.0
 20
0.0
 30
0.0
  9
$UCSYDIR
 10
0.0
 20
1.0
 30
0.0
  9
$UCSORTHOREF
  2

  9
$UCSORTHOVIEW
 70
     0
  9
$UCSORGTOP
 10
0.0
 20
0.0
 30
0.0
  9
$UCSORGBOTTOM
 10
0.0
 20
0.0
 30
0.0
  9
$UCSORGLEFT
 10
0.0
 20
0.0
 30
0.0
  9
$UCSORGRIGHT
 10
0.0
 20
0.0
 30
0.0
  9
$UCSORGFRONT
 10
0.0
 20
0.0
 30
0.0
  9
$UCSORGBACK
 10
0.0
 20
0.0
 30
0.0
  9
$PUCSBASE
  2

  9
$PUCSNAME
  2

  9
$PUCSORG
 10
0.0
 20
0.0
 30
0.0
  9
$PUCSXDIR
 10
1.0
 20
0.0
 30
0.0
  9
$PUCSYDIR
 10
0.0
 20
1.0
 30
0.0
  9
$PUCSORTHOREF
  2

  9
$PUCSORTHOVIEW
 70
     0
  9
$PUCSORGTOP
 10
0.0
 20
0.0
 30
0.0
  9
$PUCSORGBOTTOM
 10
0.0
 20
0.0
 30
0.0
  9
$PUCSORGLEFT
 10
0.0
 20
0.0
 30
0.0
  9
$PUCSORGRIGHT
 10
0.0
 20
0.0
 30
0.0
  9
$PUCSORGFRONT
 10
0.0
 20
0.0
 30
0.0
  9
$PUCSORGBACK
 10
0.0
 20
0.0
 30
0.0
  9
$USERI1
 70
     0
  9
$USERI2
 70
     0
  9
$USERI3
 70
     0
  9
$USERI4
 70
     0
  9
$USERI5
 70
     0
  9
$USERR1
 40
0.0
  9
$USERR2
 40
0.0
  9
$USERR3
 40
0.0
  9
$USERR4
 40
0.0
  9
$USERR5
 40
0.0
  9
$WORLDVIEW
 70
     1
  9
$SHADEDGE
 70
     3
  9
$SHADEDIF
 70
    70
  9
$TILEMODE
 70
     1
  9
$MAXACTVP
 70
    16
  9
$PINSBASE
 10
0.0
 20
0.0
 30
0.0
  9
$PLIMCHECK
 70
     0
  9
$PEXTMIN
 10
0.0
 20
0.0
 30
0.0
  9
$PEXTMAX
 10
0.0
 20
0.0
 30
0.0
  9
$PLIMMIN
 10
0.0
 20
0.0
  9
$PLIMMAX
 10
0.0
 20
0.0
  9
$UNITMODE
 70
     0
  9
$VISRETAIN
 70
     0
  9
$PLINEGEN
 70
     1
  9
$PSLTSCALE
 70
     0
  9
$TREEDEPTH
 70
  3020
  9
$CMLSTYLE
  2
Standard
  9
$CMLJUST
 70
     0
  9
$CMLSCALE
 40
1.0
  9
$PROXYGRAPHICS
 70
     0
  9
$MEASUREMENT
 70
     0
  9
$CELWEIGHT
370
     0
  9
$ENDCAPS
280
     0
  9
$JOINSTYLE
280
     0
  9
$LWDISPLAY
290
     0
  9
$INSUNITS
 70
     0
  9
$HYPERLINKBASE
  1

  9
$STYLESHEET
  1

  9
$XEDIT
290
     0
  9
$CEPSNTYPE
380
     0
  9
$PSTYLEMODE
290
     1
  9
$FINGERPRINTGUID
  2

  9
$VERSIONGUID
  2
{15BEAE7C-2F5F-4C9B-85AA-A94C2065693F}
  9
$EXTNAMES
290
     1
  9
$PSVPSCALE
 40
0.0
  9
$OLESTARTUP
290
     0
  0
ENDSEC
  0
SECTION
  2
CLASSES
  0
CLASS
  1
ACDBDICTIONARYWDFLT
  2
AcDbDictionaryWithDefault
  3
ObjectDBX Classes
 90
        0
280
     0
281
     0
  0
CLASS
  1
ACDBPLACEHOLDER
  2
AcDbPlaceHolder
  3
ObjectDBX Classes
 90
        0
280
     0
281
     0
  0
CLASS
  1
LAYOUT
  2
AcDbLayout
  3
ObjectDBX Classes
 90
        0
280
     0
281
     0
  0
CLASS
  1
DICTIONARYVAR
  2
AcDbDictionaryVar
  3
ObjectDBX Classes
 90
        0
280
     0
281
     0
  0
CLASS
  1
TABLESTYLE
  2
AcDbTableStyle
  3
ObjectDBX Classes
 90
     2047
280
     0
281
     0
  0
CLASS
  1
WIPEOUTVARIABLES
  2
AcDbWipeoutVariables
  3
"WipeOut|Product Desc:     WipeOut Dbx Application|Company:          Autodesk, Inc.|WEB Address:      www.autodesk.com"
 90
        0
280
     0
281
     0
  0
ENDSEC
  0
SECTION
  2
TABLES
  0
TABLE
  2
VPORT
  5
8
330
0
100
AcDbSymbolTable
 70
     4
  0
VPORT
  5
E0
330
8
100
AcDbSymbolTableRecord
100
AcDbViewportTableRecord
  2
*Active
 70
     0
 10
0.0
 20
0.0
 11
1.0
 21
1.0
 12
0.8354212870916075
 22
-0.1621036539602834
 13
0.0
 23
0.0
 14
1.0
 24
1.0
 15
0.0
 25
0.0
 16
0.0
 26
0.0
 36
1.0
 17
0.0
 27
0.0
 37
0.0
 40
13.7176815064473
 41
1.547584187408491
 42
50.0
 43
0.0
 44
0.0
 50
0.0
 51
0.0
 71
    16
 72
   100
 73
     1
 74
     1
 75
     0
 76
     0
 77
     0
 78
     0
281
     0
 65
     0
110
0.0
120
0.0
130
0.0
111
1.0
121
0.0
131
0.0
112
0.0
122
1.0
132
0.0
 79
     0
146
0.0
  0
ENDTAB
  0
TABLE
  2
LTYPE
  5
5
330
0
100
AcDbSymbolTable
 70
    11
  0
LTYPE
  5
14
330
5
100
AcDbSymbolTableRecord
100
AcDbLinetypeTableRecord
  2
ByBlock
 70
     0
  3

 72
    65
 73
     0
 40
0.0
  0
LTYPE
  5
15
330
5
100
AcDbSymbolTableRecord
100
AcDbLinetypeTableRecord
  2
ByLayer
 70
     0
  3

 72
    65
 73
     0
 40
0.0
  0
LTYPE
  5
16
330
5
100
AcDbSymbolTableRecord
100
AcDbLinetypeTableRecord
  2
Continuous
 70
     0
  3
Solid line
 72
    65
 73
     0
 40
0.0
  0
LTYPE
  5
A8
330
5
100
AcDbSymbolTableRecord
100
AcDbLinetypeTableRecord
  2
Dotted
 70
     0
  3
Dotted
 72
    65
 73
     2
 40
0.125
 49
0.0
 74
     4
 75
     0
340
0
 46
1.0
 50
0.0
 44
0.0
 45
0.0
 49
-0.125
 74
     4
 75
     0
340
0
 46
1.0
 50
0.0
 44
0.0
 45
0.0
  0
LTYPE
  5
A9
330
5
100
AcDbSymbolTableRecord
100
AcDbLinetypeTableRecord
  2
Center
 70
     0
  3
Center
 72
    65
 73
     4
 40
0.7699999958000002
 49
0.5
 74
     4
 75
     0
340
0
 46
1.0
 50
0.0
 44
0.0
 45
0.0
 49
-0.0724999979
 74
     4
 75
     0
340
0
 46
1.0
 50
0.0
 44
0.0
 45
0.0
 49
0.125
 74
     4
 75
     0
340
0
 46
1.0
 50
0.0
 44
0.0
 45
0.0
 49
-0.0724999979
 74
     4
 75
     0
340
0
 46
1.0
 50
0.0
 44
0.0
 45
0.0
  0
LTYPE
  5
AA
330
5
100
AcDbSymbolTableRecord
100
AcDbLinetypeTableRecord
  2
Dashed
 70
     0
  3
Dashed
 72
    65
 73
     2
 40
0.375
 49
0.25
 74
     4
 75
     0
340
0
 46
1.0
 50
0.0
 44
0.0
 45
0.0
 49
-0.125
 74
     4
 75
     0
340
0
 46
1.0
 50
0.0
 44
0.0
 45
0.0
  0
LTYPE
  5
AB
330
5
100
AcDbSymbolTableRecord
100
AcDbLinetypeTableRecord
  2
Hidden
 70
     0
  3
Hidden
 72
    65
 73
     2
 40
0.1974999979
 49
0.125
 74
     4
 75
     0
340
0
 46
1.0
 50
0.0
 44
0.0
 45
0.0
 49
-0.0724999979
 74
     4
 75
     0
340
0
 46
1.0
 50
0.0
 44
0.0
 45
0.0
  0
LTYPE
  5
AC
330
5
100
AcDbSymbolTableRecord
100
AcDbLinetypeTableRecord
  2
Phantom
 70
     0
  3
Phantom
 72
    65
 73
     6
 40
0.9674999937000002
 49
0.5
 74
     4
 75
     0
340
0
 46
1.0
 50
0.0
 44
0.0
 45
0.0
 49
-0.0724999979
 74
     4
 75
     0
340
0
 46
1.0
 50
0.0
 44
0.0
 45
0.0
 49
0.125
 74
     4
 75
     0
340
0
 46
1.0
 50
0.0
 44
0.0
 45
0.0
 49
-0.0724999979
 74
     4
 75
     0
340
0
 46
1.0
 50
0.0
 44
0.0
 45
0.0
 49
0.125
 74
     4
 75
     0
340
0
 46
1.0
 50
0.0
 44
0.0
 45
0.0
 49
-0.0724999979
 74
     4
 75
     0
340
0
 46
1.0
 50
0.0
 44
0.0
 45
0.0
  0
LTYPE
  5
AD
330
5
100
AcDbSymbolTableRecord
100
AcDbLinetypeTableRecord
  2
Dashdot
 70
     0
  3
Dashdot
 72
    65
 73
     4
 40
0.6762499958000002
 49
0.5
 74
     4
 75
     0
340
0
 46
1.0
 50
0.0
 44
0.0
 45
0.0
 49
-0.0724999979
 74
     4
 75
     0
340
0
 46
1.0
 50
0.0
 44
0.0
 45
0.0
 49
0.03125
 74
     4
 75
     0
340
0
 46
1.0
 50
0.0
 44
0.0
 45
0.0
 49
-0.0724999979
 74
     4
 75
     0
340
0
 46
1.0
 50
0.0
 44
0.0
 45
0.0
  0
LTYPE
  5
AE
330
5
100
AcDbSymbolTableRecord
100
AcDbLinetypeTableRecord
  2
Border
 70
     0
  3
Border
 72
    65
 73
     6
 40
1.2487499937
 49
0.5
 74
     4
 75
     0
340
0
 46
1.0
 50
0.0
 44
0.0
 45
0.0
 49
-0.0724999979
 74
     4
 75
     0
340
0
 46
1.0
 50
0.0
 44
0.0
 45
0.0
 49
0.5
 74
     4
 75
     0
340
0
 46
1.0
 50
0.0
 44
0.0
 45
0.0
 49
-0.0724999979
 74
     4
 75
     0
340
0
 46
1.0
 50
0.0
 44
0.0
 45
0.0
 49
0.03125
 74
     4
 75
     0
340
0
 46
1.0
 50
0.0
 44
0.0
 45
0.0
 49
-0.0724999979
 74
     4
 75
     0
340
0
 46
1.0
 50
0.0
 44
0.0
 45
0.0
  0
LTYPE
  5
AF
330
5
100
AcDbSymbolTableRecord
100
AcDbLinetypeTableRecord
  2
Divide
 70
     0
  3
Divide
 72
    65
 73
     6
 40
0.7799999937000002
 49
0.5
 74
     4
 75
     0
340
0
 46
1.0
 50
0.0
 44
0.0
 45
0.0
 49
-0.0724999979
 74
     4
 75
     0
340
0
 46
1.0
 50
0.0
 44
0.0
 45
0.0
 49
0.03125
 74
     4
 75
     0
340
0
 46
1.0
 50
0.0
 44
0.0
 45
0.0
 49
-0.0724999979
 74
     4
 75
     0
340
0
 46
1.0
 50
0.0
 44
0.0
 45
0.0
 49
0.03125
 74
     4
 75
     0
340
0
 46
1.0
 50
0.0
 44
0.0
 45
0.0
 49
-0.0724999979
 74
     4
 75
     0
340
0
 46
1.0
 50
0.0
 44
0.0
 45
0.0
  0
LTYPE
  5
B0
330
5
100
AcDbSymbolTableRecord
100
AcDbLinetypeTableRecord
  2
Cutting
 70
     0
  3
Cutting
 72
    65
 73
     6
 40
1.4674999937
 49
1.0
 74
     4
 75
     0
340
0
 46
1.0
 50
0.0
 44
0.0
 45
0.0
 49
-0.0724999979
 74
     4
 75
     0
340
0
 46
1.0
 50
0.0
 44
0.0
 45
0.0
 49
0.125
 74
     4
 75
     0
340
0
 46
1.0
 50
0.0
 44
0.0
 45
0.0
 49
-0.0724999979
 74
     4
 75
     0
340
0
 46
1.0
 50
0.0
 44
0.0
 45
0.0
 49
0.125
 74
     4
 75
     0
340
0
 46
1.0
 50
0.0
 44
0.0
 45
0.0
 49
-0.0724999979
 74
     4
 75
     0
340
0
 46
1.0
 50
0.0
 44
0.0
 45
0.0
  0
LTYPE
  5
B1
330
5
100
AcDbSymbolTableRecord
100
AcDbLinetypeTableRecord
  2
Stitch
 70
     0
  3
Stitch
 72
    65
 73
     2
 40
0.1449999958
 49
0.0724999979
 74
     4
 75
     0
340
0
 46
1.0
 50
0.0
 44
0.0
 45
0.0
 49
-0.0724999979
 74
     4
 75
     0
340
0
 46
1.0
 50
0.0
 44
0.0
 45
0.0
  0
ENDTAB
  0
TABLE
  2
LAYER
  5
2
330
0
100
AcDbSymbolTable
 70
     7
  0
LAYER
  5
10
330
2
100
AcDbSymbolTableRecord
100
AcDbLayerTableRecord
  2
0
 70
     0
 62
     7
  6
Continuous
370
    -3
390
F
  0
LAYER
  5
2F
330
2
100
AcDbSymbolTableRecord
100
AcDbLayerTableRecord
  2
SECTION
 70
     0
 62
     7
  6
Continuous
370
    -3
390
F
  0
LAYER
  5
30
330
2
100
AcDbSymbolTableRecord
100
AcDbLayerTableRecord
  2
CONSTRUCTION
 70
     0
 62
     7
  6
Continuous
370
     0
390
F
  0
LAYER
  5
31
330
2
100
AcDbSymbolTableRecord
100
AcDbLayerTableRecord
  2
DIMENSION
 70
     0
 62
     7
  6
Continuous
370
     0
390
F
  0
LAYER
  5
32
330
2
100
AcDbSymbolTableRecord
100
AcDbLayerTableRecord
  2
CONSTRAINTS
 70
     0
 62
     7
  6
Continuous
370
     0
390
F
  0
LAYER
  5
33
330
2
100
AcDbSymbolTableRecord
100
AcDbLayerTableRecord
  2
OUTLINE
 70
     0
 62
     7
  6
Continuous
370
    -3
390
F
  0
LAYER
  5
34
330
2
100
AcDbSymbolTableRecord
100
AcDbLayerTableRecord
  2
FORMAT
 70
     0
 62
     7
  6
Continuous
370
    -3
390
F
  0
ENDTAB
  0
TABLE
  2
STYLE
  5
3
330
0
100
AcDbSymbolTable
 70
     2
  0
STYLE
  5
11
330
3
100
AcDbSymbolTableRecord
100
AcDbTextStyleTableRecord
  2
Standard
 70
     0
 40
0.0
 41
1.0
 50
0.0
 71
     0
 42
0.2
  3
txt
  4

  0
STYLE
  5
24
330
3
100
AcDbSymbolTableRecord
100
AcDbTextStyleTableRecord
  2
Plotter
 70
     0
 40
0.0
 41
0.98
 50
0.0
 71
     0
 42
0.2
  3
SIMPLEX
  4

  0
ENDTAB
  0
TABLE
  2
VIEW
  5
6
330
0
100
AcDbSymbolTable
 70
     0
  0
ENDTAB
  0
TABLE
  2
UCS
  5
7
330
0
100
AcDbSymbolTable
 70
     0
  0
ENDTAB
  0
TABLE
  2
APPID
  5
9
330
0
100
AcDbSymbolTable
 70
     1
  0
APPID
  5
12
330
9
100
AcDbSymbolTableRecord
100
AcDbRegAppTableRecord
  2
ACAD
 70
     0
  0
ENDTAB
  0
TABLE
  2
DIMSTYLE
  5
A
330
0
100
AcDbSymbolTable
 70
     4
100
AcDbDimStyleTable
 71
     0
  0
DIMSTYLE
105
27
330
A
100
AcDbSymbolTableRecord
100
AcDbDimStyleTableRecord
  2
Standard
 70
     0
289
     0
340
11
  0
DIMSTYLE
105
44
102
{ACAD_REACTORS
330
43
102
}
330
A
100
AcDbSymbolTableRecord
100
AcDbDimStyleTableRecord
  2
VlmDim1
 70
     0
 41
0.25
140
0.125
171
     0
271
     3
272
     3
289
     0
340
24
  0
DIMSTYLE
105
86
102
{ACAD_REACTORS
330
85
102
}
330
A
100
AcDbSymbolTableRecord
100
AcDbDimStyleTableRecord
  2
VlmDim2
 70
     0
 41
0.25
140
0.125
171
     0
271
     3
272
     3
289
     0
340
24
  0
DIMSTYLE
105
B2
102
{ACAD_REACTORS
330
91
102
}
330
A
100
AcDbSymbolTableRecord
100
AcDbDimStyleTableRecord
  2
VlmDim3
 70
     0
 41
0.25
140
0.125
171
     0
271
     3
272
     3
289
     0
340
24
  0
ENDTAB
  0
TABLE
  2
BLOCK_RECORD
  5
1
330
0
100
AcDbSymbolTable
 70
     4
  0
BLOCK_RECORD
  5
1F
330
1
100
AcDbSymbolTableRecord
100
AcDbBlockTableRecord
  2
*Model_Space
340
22
  0
BLOCK_RECORD
  5
73
330
1
100
AcDbSymbolTableRecord
100
AcDbBlockTableRecord
  2
*Paper_Space
340
74
  0
BLOCK_RECORD
  5
3D
330
1
100
AcDbSymbolTableRecord
100
AcDbBlockTableRecord
  2
VlmArrow1
340
0
102
{BLKREFS
331
4A
331
4C
331
8C
331
8E
331
BE
331
9A
331
41
331
58
102
}
  0
BLOCK_RECORD
  5
45
330
1
100
AcDbSymbolTableRecord
100
AcDbBlockTableRecord
  2
*D1
340
0
  0
BLOCK_RECORD
  5
87
330
1
100
AcDbSymbolTableRecord
100
AcDbBlockTableRecord
  2
*D2
340
0
  0
BLOCK_RECORD
  5
BA
330
1
100
AcDbSymbolTableRecord
100
AcDbBlockTableRecord
  2
*D3
340
0
  0
ENDTAB
  0
ENDSEC
  0
SECTION
  2
BLOCKS
  0
BLOCK
  5
20
330
1F
100
AcDbEntity
  8
0
100
AcDbBlockBegin
  2
*Model_Space
 70
     0
 10
0.0
 20
0.0
 30
0.0
  3
*Model_Space
  1

  0
ENDBLK
  5
21
330
1F
100
AcDbEntity
  8
0
100
AcDbBlockEnd
  0
BLOCK
  5
75
330
73
100
AcDbEntity
 67
     1
  8
0
100
AcDbBlockBegin
  2
*Paper_Space
 70
     0
 10
0.0
 20
0.0
 30
0.0
  3
*Paper_Space
  1

  0
ENDBLK
  5
76
330
73
100
AcDbEntity
 67
     1
  8
0
100
AcDbBlockEnd
  0
BLOCK
  5
B4
330
3D
100
AcDbEntity
  8
0
100
AcDbBlockBegin
  2
VlmArrow1
 70
     0
 10
0.0
 20
0.0
 30
0.0
  3
VlmArrow1
  1

  0
SOLID
  5
3F
330
3D
100
AcDbEntity
  8
0
 62
     0
370
     0
100
AcDbTrace
 10
0.0
 20
0.0
 30
0.0
 11
-1.0
 21
-0.25
 31
0.0
 12
0.0
 22
0.0
 32
0.0
 13
-1.0
 23
0.25
 33
0.0
  0
ENDBLK
  5
B5
330
3D
100
AcDbEntity
  8
0
100
AcDbBlockEnd
  0
BLOCK
  5
B6
330
45
100
AcDbEntity
  8
0
100
AcDbBlockBegin
  2
*D1
 70
     1
 10
0.0
 20
0.0
 30
0.0
  3
*D1
  1

  0
LINE
  5
47
330
45
100
AcDbEntity
  8
SECTION
  6
Continuous
 62
     5
370
     0
100
AcDbLine
 10
-1.432313011699999
 20
0.1518229159
 30
0.0
 11
-1.432313011699999
 21
0.0011418385
 31
0.0
  0
LINE
  5
48
330
45
100
AcDbEntity
  8
SECTION
  6
Continuous
 62
     5
370
     0
100
AcDbLine
 10
-1.557454700499999
 20
0.1518229159
 30
0.0
 11
-1.557454700499999
 21
0.0011418385
 31
0.0
  0
LINE
  5
49
330
45
100
AcDbEntity
  8
SECTION
  6
Continuous
 62
     5
370
     0
100
AcDbLine
 10
-1.557454700499999
 20
0.0511418392
 30
0.0
 11
-1.999579750299999
 21
0.0511418392
 31
0.0
  0
INSERT
  5
4A
330
45
100
AcDbEntity
  8
SECTION
 62
     5
100
AcDbBlockReference
  2
VlmArrow1
 10
1.557454700499999
 20
0.0511418392
 30
0.0
 41
0.125
 42
0.125
 43
0.125
 50
180.0
210
0.0
220
0.0
230
-1.0
  0
LINE
  5
4B
330
45
100
AcDbEntity
  8
SECTION
  6
Continuous
 62
     5
370
     0
100
AcDbLine
 10
-1.432313011699999
 20
0.0511418392
 30
0.0
 11
-1.0573130117
 21
0.0511418392
 31
0.0
  0
INSERT
  5
4C
330
45
100
AcDbEntity
  8
SECTION
 62
     5
100
AcDbBlockReference
  2
VlmArrow1
 10
1.432313011699999
 20
0.0511418392
 30
0.0
 41
0.125
 42
0.125
 43
0.125
210
0.0
220
0.0
230
-1.0
  0
MTEXT
  5
4D
330
45
100
AcDbEntity
  8
SECTION
 62
     5
100
AcDbMText
 10
-2.5799368932
 20
0.1136418392
 30
0.0
 40
0.125
 41
0.5178571429
 71
     1
 72
     1
  1
0.125
  7
Plotter
 73
     1
 44
1.0
1001
ACAD
1000
MTEXTBEGIN
1070
    73
1070
     1
1070
    44
1040
1.0
1070
    74
1070
     0
1000
MTEXTEND
  0
ENDBLK
  5
B7
330
45
100
AcDbEntity
  8
0
100
AcDbBlockEnd
  0
BLOCK
  5
B8
330
87
100
AcDbEntity
  8
0
100
AcDbBlockBegin
  2
*D2
 70
     1
 10
0.0
 20
0.0
 30
0.0
  3
*D2
  1

  0
LINE
  5
89
330
87
100
AcDbEntity
  8
DIMENSION
  6
Continuous
 62
     5
370
     0
100
AcDbLine
 10
9.7178650282
 20
-0.1501228053
 30
0.0
 11
9.7178650282
 21
-6.8739573492
 31
0.0
  0
LINE
  5
8A
330
87
100
AcDbEntity
  8
DIMENSION
  6
Continuous
 62
     5
370
     0
100
AcDbLine
 10
-9.025
 20
0.1000009841
 30
0.0
 11
-9.025
 21
-6.8739573492
 31
0.0
  0
LINE
  5
8B
330
87
100
AcDbEntity
  8
DIMENSION
  6
Continuous
 62
     5
370
     0
100
AcDbLine
 10
-9.025
 20
-6.823957348499999
 30
0.0
 11
-0.0345198669
 21
-6.823957348499999
 31
0.0
  0
INSERT
  5
8C
330
87
100
AcDbEntity
  8
DIMENSION
 62
     5
100
AcDbBlockReference
  2
VlmArrow1
 10
-9.025
 20
-6.823957348499999
 30
0.0
 41
0.125
 42
0.125
 43
0.125
 50
180.0
  0
LINE
  5
8D
330
87
100
AcDbEntity
  8
DIMENSION
  6
Continuous
 62
     5
370
     0
100
AcDbLine
 10
9.7178650282
 20
-6.823957348499999
 30
0.0
 11
0.7273848950000001
 21
-6.823957348499999
 31
0.0
  0
INSERT
  5
8E
330
87
100
AcDbEntity
  8
DIMENSION
 62
     5
100
AcDbBlockReference
  2
VlmArrow1
 10
9.7178650282
 20
-6.823957348499999
 30
0.0
 41
0.125
 42
0.125
 43
0.125
  0
MTEXT
  5
8F
330
87
100
AcDbEntity
  8
DIMENSION
 62
     5
100
AcDbMText
 10
0.0279801331
 20
-6.761457348499999
 30
0.0
 40
0.125
 41
0.6369047619
 71
     1
 72
     1
  1
18.743
  7
Plotter
 73
     1
 44
1.0
1001
ACAD
1000
MTEXTBEGIN
1070
    73
1070
     1
1070
    44
1040
1.0
1070
    74
1070
     0
1000
MTEXTEND
  0
ENDBLK
  5
B9
330
87
100
AcDbEntity
  8
0
100
AcDbBlockEnd
  0
BLOCK
  5
BB
330
BA
100
AcDbEntity
  8
0
100
AcDbBlockBegin
  2
*D3
 70
     1
 10
0.0
 20
0.0
 30
0.0
  3
*D3
  1

  0
LINE
  5
95
330
BA
100
AcDbEntity
  8
DIMENSION
  6
Continuous
 62
     5
370
     0
100
AcDbLine
 10
0.2999999993
 20
-6.262249999999999
 30
0.0
 11
-9.7104166674
 21
-6.262249999999999
 31
0.0
  0
LINE
  5
96
330
BA
100
AcDbEntity
  8
DIMENSION
  6
Continuous
 62
     5
370
     0
100
AcDbLine
 10
0.2999999993
 20
6.562249999999999
 30
0.0
 11
-9.7104166674
 21
6.562249999999999
 31
0.0
  0
LINE
  5
BD
330
BA
100
AcDbEntity
  8
DIMENSION
  6
Continuous
 62
     5
370
     0
100
AcDbLine
 10
-9.660416666699999
 20
6.562249999999999
 30
0.0
 11
-9.660416666699999
 21
0.275
 31
0.0
  0
INSERT
  5
BE
330
BA
100
AcDbEntity
  8
DIMENSION
 62
     5
100
AcDbBlockReference
  2
VlmArrow1
 10
-9.660416666699999
 20
6.562249999999999
 30
0.0
 41
0.125
 42
0.125
 43
0.125
 50
90.0
  0
LINE
  5
99
330
BA
100
AcDbEntity
  8
DIMENSION
  6
Continuous
 62
     5
370
     0
100
AcDbLine
 10
-9.660416666699999
 20
-6.262249999999999
 30
0.0
 11
-9.660416666699999
 21
0.025
 31
0.0
  0
INSERT
  5
9A
330
BA
100
AcDbEntity
  8
DIMENSION
 62
     5
100
AcDbBlockReference
  2
VlmArrow1
 10
-9.660416666699999
 20
-6.262249999999999
 30
0.0
 41
0.125
 42
0.125
 43
0.125
 50
270.0
  0
MTEXT
  5
9B
330
BA
100
AcDbEntity
  8
DIMENSION
 62
     5
100
AcDbMText
 10
-9.978869047599999
 20
0.2125
 30
0.0
 40
0.125
 41
0.6369047619
 71
     1
 72
     1
  1
12.825
  7
Plotter
 73
     1
 44
1.0
1001
ACAD
1000
MTEXTBEGIN
1070
    73
1070
     1
1070
    44
1040
1.0
1070
    74
1070
     0
1000
MTEXTEND
  0
ENDBLK
  5
BC
330
BA
100
AcDbEntity
  8
0
100
AcDbBlockEnd
  0
ENDSEC
  0
SECTION
  2
ENTITIES
  0
LINE
  5
35
330
1F
100
AcDbEntity
  8
SECTION
  6
Continuous
 62
     7
370
    25
100
AcDbLine
 10
0.1843069668
 20
-0.2731770833
 30
0.0
 11
0.2953069668
 21
-0.1621770833
 31
0.0
  0
LINE
  5
36
330
1F
100
AcDbEntity
  8
SECTION
  6
Continuous
 62
     1
370
    40
100
AcDbLine
 10
2.5322255327
 20
0.6986638950000001
 30
0.0
 11
2.442545299499999
 21
0.5437817402000001
 31
0.0
  0
LINE
  5
37
330
1F
100
AcDbEntity
  8
SECTION
  6
Continuous
 62
     1
370
    40
100
AcDbLine
 10
2.442545299499999
 20
1.0690342654
 30
0.0
 11
2.442545299499999
 21
1.4518229167
 31
0.0
  0
MTEXT
  5
38
330
1F
100
AcDbEntity
  8
SECTION
 62
     5
100
AcDbMText
 10
1.0823578007
 20
2.7442036441
 30
0.0
 40
0.125
 41
1.25
 71
     1
 72
     1
  1
COUNTERTOP
  7
Plotter
 73
     1
 44
1.0
1001
ACAD
1000
MTEXTBEGIN
1070
    73
1070
     1
1070
    44
1040
1.0
1070
    74
1070
     0
1000
MTEXTEND
  0
LINE
  5
39
330
1F
100
AcDbEntity
  8
SECTION
  6
Continuous
 62
     1
370
    40
100
AcDbLine
 10
2.442545299499999
 20
1.0690342654
 30
0.0
 11
2.352100834399999
 21
0.9343541306999998
 31
0.0
  0
LINE
  5
3A
330
1F
100
AcDbEntity
  8
SECTION
  6
Continuous
 62
     1
370
    40
100
AcDbLine
 10
2.352100834399999
 20
0.9343541306999998
 30
0.0
 11
2.5322255327
 21
0.6986638950000001
 31
0.0
  0
LINE
  5
3B
330
1F
100
AcDbEntity
  8
SECTION
  6
Continuous
 62
     1
370
    40
100
AcDbLine
 10
2.442545299499999
 20
0.2018229167
 30
0.0
 11
2.442545299499999
 21
0.5437817402000001
 31
0.0
  0
LINE
  5
3C
330
1F
100
AcDbEntity
  8
SECTION
  6
Continuous
 62
     5
370
    25
100
AcDbLine
 10
0.1068189605
 20
1.4518229167
 30
0.0
 11
0.8023790047
 21
2.651631066799999
 31
0.0
  0
INSERT
  5
41
330
1F
100
AcDbEntity
  8
SECTION
 62
     5
100
AcDbBlockReference
  2
VlmArrow1
 10
0.1068189605
 20
1.4518229167
 30
0.0
 41
0.25
 42
0.25
 43
0.25
 50
239.8980132004
  0
LINE
  5
42
330
1F
100
AcDbEntity
  8
SECTION
  6
Continuous
 62
     5
370
    25
100
AcDbLine
 10
0.8023790047
 20
2.651631066799999
 30
0.0
 11
1.0323630613
 21
2.651631066799999
 31
0.0
  0
DIMENSION
  5
43
330
1F
100
AcDbEntity
  8
SECTION
  6
Continuous
 62
     5
370
     0
100
AcDbDimension
  2
*D1
 10
-1.432313011699999
 20
0.0511418382
 30
0.0
 11
-2.321008321699999
 21
0.0511418392
 31
0.0
 70
    32
 71
     5
 42
-1.0
  3
VlmDim1
100
AcDbAlignedDimension
 13
-1.557454700499999
 23
0.2018229167
 33
0.0
 14
-1.432313011699999
 24
0.2018229167
 34
0.0
100
AcDbRotatedDimension
  0
LINE
  5
4F
330
1F
100
AcDbEntity
  8
SECTION
  6
Continuous
 62
     1
370
    40
100
AcDbLine
 10
2.442545299499999
 20
-0.3752196128
 30
0.0
 11
2.442545299499999
 21
0.2018229167
 31
0.0
  0
LINE
  5
50
330
1F
100
AcDbEntity
  8
SECTION
  6
Continuous
 62
     7
370
    40
100
AcDbLine
 10
0.2953069668
 20
0.0143229167
 30
0.0
 11
0.2953069668
 21
-0.2731770833
 31
0.0
  0
ARC
  5
51
330
1F
100
AcDbEntity
  8
SECTION
  6
Continuous
 62
     7
370
    40
100
AcDbCircle
 10
0.1078069668
 20
0.0143229167
 30
0.0
 40
0.1875
100
AcDbArc
 50
0.0
 51
90.0
  0
ARC
  5
52
330
1F
100
AcDbEntity
  8
SECTION
  6
Continuous
 62
     7
370
    40
100
AcDbCircle
 10
-0.9571815103
 20
-0.5257232507000001
 30
0.0
 40
0.2525461674
100
AcDbArc
 50
90.0
 51
175.0049731571
  0
LINE
  5
53
330
1F
100
AcDbEntity
  8
SECTION
  6
Continuous
 62
     7
370
    40
100
AcDbLine
 10
-1.3702543135
 20
-2.341653539699999
 30
0.0
 11
-1.208768572799999
 21
-0.5037342391000001
 31
0.0
  0
LINE
  5
54
330
1F
100
AcDbEntity
  8
SECTION
  6
Continuous
 62
     7
370
    25
100
AcDbLine
 10
-1.6018899198
 20
-1.726571864599999
 30
0.0
 11
-1.2886926157
 21
-1.4133745605
 31
0.0
  0
LINE
  5
55
330
1F
100
AcDbEntity
  8
SECTION
  6
Continuous
 62
     7
370
    25
100
AcDbLine
 10
-1.5375307589
 20
-0.9940802935
 30
0.0
 11
-1.2243334549
 21
-0.6808829894000001
 31
0.0
  0
MTEXT
  5
56
330
1F
100
AcDbEntity
  8
SECTION
 62
     5
100
AcDbMText
 10
-3.417642199299999
 20
-1.105796355899999
 30
0.0
 40
0.125
 41
0.5
 71
     1
 72
     1
  1
SINK
  7
Plotter
 73
     1
 44
1.0
1001
ACAD
1000
MTEXTBEGIN
1070
    73
1070
     1
1070
    44
1040
1.0
1070
    74
1070
     0
1000
MTEXTEND
  0
LINE
  5
57
330
1F
100
AcDbEntity
  8
SECTION
  6
Continuous
 62
     5
370
    25
100
AcDbLine
 10
-1.5658529076
 20
-1.316423451699999
 30
0.0
 11
-2.980601185799999
 21
-1.192118933199999
 31
0.0
  0
INSERT
  5
58
330
1F
100
AcDbEntity
  8
SECTION
 62
     5
100
AcDbBlockReference
  2
VlmArrow1
 10
-1.5658529076
 20
-1.316423451699999
 30
0.0
 41
0.25
 42
0.25
 43
0.25
 50
354.9786960006
  0
LINE
  5
BF
330
1F
100
AcDbEntity
  8
SECTION
  6
Continuous
 62
     7
370
    25
100
AcDbLine
 10
-1.61797971
 20
-1.9096947574
 30
0.0
 11
-1.304782405999999
 21
-1.5964974533
 31
0.0
  0
LINE
  5
C0
330
1F
100
AcDbEntity
  8
SECTION
  6
Continuous
 62
     7
370
    25
100
AcDbLine
 10
-1.6340695002
 20
-2.0928176502
 30
0.0
 11
-1.3208721962
 21
-1.779620346099999
 31
0.0
  0
LINE
  5
5B
330
1F
100
AcDbEntity
  8
SECTION
  6
Continuous
 62
     1
370
    40
100
AcDbLine
 10
-1.6371610942
 20
-2.1280040402
 30
0.0
 11
-1.4691923442
 21
-2.2041759152
 31
0.0
  0
LINE
  5
5C
330
1F
100
AcDbEntity
  8
SECTION
  6
Continuous
 62
     7
370
    25
100
AcDbLine
 10
-1.4447568016
 20
-2.2375711567
 30
0.0
 11
-1.3530517766
 21
-2.1458661317
 31
0.0
  0
LINE
  5
5D
330
1F
100
AcDbEntity
  8
SECTION
  6
Continuous
 62
     7
370
    25
100
AcDbLine
 10
-0.4825613437
 20
-0.2731770833
 30
0.0
 11
-0.4825613437
 21
-0.2731770833
 31
0.0
  0
LINE
  5
C1
330
1F
100
AcDbEntity
  8
SECTION
  6
Continuous
 62
     1
370
    40
100
AcDbLine
 10
-1.4691923442
 20
-2.2041759152
 30
0.0
 11
-1.3787113334
 21
-2.3278332967
 31
0.0
  0
LINE
  5
5F
330
1F
100
AcDbEntity
  8
SECTION
  6
Continuous
 62
     1
370
    40
100
AcDbLine
 10
-1.3787113334
 20
-2.3278332967
 30
0.0
 11
-1.3520048442
 21
-2.3643321652
 31
0.0
  0
LINE
  5
60
330
1F
100
AcDbEntity
  8
SECTION
  6
Continuous
 62
     7
370
    25
100
AcDbLine
 10
-1.553620549099999
 20
-1.1772031862
 30
0.0
 11
-1.240423245099999
 21
-0.8640058822
 31
0.0
  0
LINE
  5
61
330
1F
100
AcDbEntity
  8
SECTION
  6
Continuous
 62
     7
370
    25
100
AcDbLine
 10
-1.5697103394
 20
-1.360326079
 30
0.0
 11
-1.2565130353
 21
-1.047128775
 31
0.0
  0
LINE
  5
62
330
1F
100
AcDbEntity
  8
SECTION
  6
Continuous
 62
     7
370
    25
100
AcDbLine
 10
-1.5443235393
 20
-2.1701047918
 30
0.0
 11
-1.336961986399999
 21
-1.962743238899999
 31
0.0
  0
LINE
  5
63
330
1F
100
AcDbEntity
  8
SECTION
  6
Continuous
 62
     7
370
    25
100
AcDbLine
 10
-1.521440968699999
 20
-0.8109574006999999
 30
0.0
 11
-1.208768572799999
 21
-0.5037342391000001
 31
0.0
  0
LINE
  5
64
330
1F
100
AcDbEntity
  8
SECTION
  6
Continuous
 62
     7
370
    25
100
AcDbLine
 10
-1.585800129599999
 20
-1.5434489718
 30
0.0
 11
-1.272602825499999
 21
-1.230251667799999
 31
0.0
  0
LINE
  5
65
330
1F
100
AcDbEntity
  8
SECTION
  6
Continuous
 62
     1
370
    40
100
AcDbLine
 10
-1.3520048442
 20
-2.3643321652
 30
0.0
 11
-1.1609761586
 21
-2.456205630799999
 31
0.0
  0
LINE
  5
66
330
1F
100
AcDbEntity
  8
SECTION
  6
Continuous
 62
     1
370
    40
100
AcDbLine
 10
-1.8051298442
 20
-2.0518321652
 30
0.0
 11
-1.6371610942
 21
-2.1280040402
 31
0.0
  0
LINE
  5
67
330
1F
100
AcDbEntity
  8
SECTION
  6
Continuous
 62
     3
370
    40
100
AcDbLine
 10
-1.557454700499999
 20
1.4518229167
 30
0.0
 11
-1.557454700499999
 21
0.2018229167
 31
0.0
  0
MTEXT
  5
68
330
1F
100
AcDbEntity
  8
SECTION
 62
     7
100
AcDbMText
 10
-3.695836680999999
 20
-3.215429354599999
 30
0.0
 40
0.125
 41
7.125
 71
     1
 72
     1
  1
NOTE: THIS TEMPLATE IS FOR THE TYPE OF INSTALLATION SHOWN ABOVE.\PCOUNTERTOP WILL OVERHANG SINK BOWLS BY APPROXIMATELY 1/8".\PCHECK DIMENSIONS FOR PROPER FIT.
  7
Plotter
 73
     1
 44
1.0
1001
ACAD
1000
MTEXTBEGIN
1070
    73
1070
     1
1070
    44
1040
1.0
1070
    74
1070
     0
1000
MTEXTEND
  0
LINE
  5
69
330
1F
100
AcDbEntity
  8
SECTION
  6
Continuous
 62
     3
370
    40
100
AcDbLine
 10
-1.557454700499999
 20
0.2018229167
 30
0.0
 11
2.442545299499999
 21
0.2018229167
 31
0.0
  0
LINE
  5
6A
330
1F
100
AcDbEntity
  8
SECTION
  6
Continuous
 62
     3
370
    13
100
AcDbLine
 10
2.191409446699999
 20
1.4518229167
 30
0.0
 11
2.442545299499999
 21
1.2006870639
 31
0.0
  0
LINE
  5
C2
330
1F
100
AcDbEntity
  8
SECTION
  6
Continuous
 62
     3
370
    13
100
AcDbLine
 10
1.857343241599999
 20
1.4518229167
 30
0.0
 11
2.3612251225
 21
0.9479410357999999
 31
0.0
  0
LINE
  5
C3
330
1F
100
AcDbEntity
  8
SECTION
  6
Continuous
 62
     3
370
    13
100
AcDbLine
 10
1.523277036499999
 20
1.4518229167
 30
0.0
 11
2.442545299499999
 21
0.5325546537000001
 31
0.0
  0
LINE
  5
6D
330
1F
100
AcDbEntity
  8
SECTION
  6
Continuous
 62
     3
370
    13
100
AcDbLine
 10
1.1892108314
 20
1.4518229167
 30
0.0
 11
2.4392108314
 21
0.2018229167
 31
0.0
  0
LINE
  5
6E
330
1F
100
AcDbEntity
  8
SECTION
  6
Continuous
 62
     3
370
    13
100
AcDbLine
 10
0.8551446261999998
 20
1.4518229167
 30
0.0
 11
2.105144626199999
 21
0.2018229167
 31
0.0
  0
LINE
  5
6F
330
1F
100
AcDbEntity
  8
SECTION
  6
Continuous
 62
     3
370
    13
100
AcDbLine
 10
0.5210784211
 20
1.4518229167
 30
0.0
 11
1.771078421099999
 21
0.2018229167
 31
0.0
  0
LINE
  5
70
330
1F
100
AcDbEntity
  8
SECTION
  6
Continuous
 62
     3
370
    13
100
AcDbLine
 10
0.187012216
 20
1.4518229167
 30
0.0
 11
1.437012216
 21
0.2018229167
 31
0.0
  0
LINE
  5
71
330
1F
100
AcDbEntity
  8
SECTION
  6
Continuous
 62
     3
370
    13
100
AcDbLine
 10
-0.1470539892
 20
1.4518229167
 30
0.0
 11
1.102946010799999
 21
0.2018229167
 31
0.0
  0
LINE
  5
72
330
1F
100
AcDbEntity
  8
SECTION
  6
Continuous
 62
     3
370
    13
100
AcDbLine
 10
-0.4811201943000001
 20
1.4518229167
 30
0.0
 11
0.7688798057000001
 21
0.2018229167
 31
0.0
  0
LINE
  5
C4
330
1F
100
AcDbEntity
  8
SECTION
  6
Continuous
 62
     3
370
    13
100
AcDbLine
 10
-0.8151863994000001
 20
1.4518229167
 30
0.0
 11
0.4348136006
 21
0.2018229167
 31
0.0
  0
LINE
  5
C5
330
1F
100
AcDbEntity
  8
SECTION
  6
Continuous
 62
     3
370
    13
100
AcDbLine
 10
-1.149252604499999
 20
1.4518229167
 30
0.0
 11
0.1007473955
 21
0.2018229167
 31
0.0
  0
LINE
  5
C6
330
1F
100
AcDbEntity
  8
SECTION
  6
Continuous
 62
     3
370
    13
100
AcDbLine
 10
-1.4833188097
 20
1.4518229167
 30
0.0
 11
-0.2333188097
 21
0.2018229167
 31
0.0
  0
LINE
  5
C7
330
1F
100
AcDbEntity
  8
SECTION
  6
Continuous
 62
     3
370
    13
100
AcDbLine
 10
-1.557454700499999
 20
1.1918926024
 30
0.0
 11
-0.5673850148000001
 21
0.2018229167
 31
0.0
  0
LINE
  5
77
330
1F
100
AcDbEntity
  8
SECTION
  6
Continuous
 62
     3
370
    13
100
AcDbLine
 10
-1.557454700499999
 20
0.8578263973
 30
0.0
 11
-0.9014512199
 21
0.2018229167
 31
0.0
  0
LINE
  5
78
330
1F
100
AcDbEntity
  8
SECTION
  6
Continuous
 62
     3
370
    13
100
AcDbLine
 10
-1.557454700499999
 20
0.5237601921000001
 30
0.0
 11
-1.2355174251
 21
0.2018229167
 31
0.0
  0
LINE
  5
79
330
1F
100
AcDbEntity
  8
SECTION
  6
Continuous
 62
     3
370
    40
100
AcDbLine
 10
2.442545299499999
 20
1.4518229167
 30
0.0
 11
-1.557454700499999
 21
1.4518229167
 31
0.0
  0
LINE
  5
7A
330
1F
100
AcDbEntity
  8
SECTION
  6
Continuous
 62
     7
370
    40
100
AcDbLine
 10
-1.4323499109
 20
0.2018229167
 30
-1.0
 11
0.1078070239
 21
0.2018229167
 31
-1.0
  0
LINE
  5
7B
330
1F
100
AcDbEntity
  8
SECTION
  6
Continuous
 62
     7
370
    40
100
AcDbLine
 10
-1.4323499109
 20
0.2018229167
 30
-1.0
 11
0.1078069668
 21
0.2022425871
 31
-1.0
  0
LINE
  5
7C
330
1F
100
AcDbEntity
  8
SECTION
  6
Continuous
 62
     7
370
    40
100
AcDbLine
 10
-0.9571815103
 20
-0.2731770833
 30
0.0
 11
0.2953069668
 21
-0.2731770833
 31
0.0
  0
LINE
  5
7D
330
1F
100
AcDbEntity
  8
SECTION
  6
Continuous
 62
     7
370
    25
100
AcDbLine
 10
-0.1496537155
 20
-0.2731770833
 30
0.0
 11
0.2607548099
 21
0.1227812371
 31
0.0
  0
LINE
  5
7E
330
1F
100
AcDbEntity
  8
SECTION
  6
Continuous
 62
     7
370
    25
100
AcDbLine
 10
-0.4825613437
 20
-0.2731770833
 30
0.0
 11
-0.0075613437
 21
0.2018229167
 31
0.0
  0
LINE
  5
7F
330
1F
100
AcDbEntity
  8
SECTION
  6
Continuous
 62
     7
370
    25
100
AcDbLine
 10
-0.3155282411
 20
-0.2731770833
 30
0.0
 11
0.1537547398
 21
0.1961058976
 31
0.0
  0
LINE
  5
80
330
1F
100
AcDbEntity
  8
SECTION
  6
Continuous
 62
     7
370
    25
100
AcDbLine
 10
0.0173069668
 20
-0.2731770833
 30
0.0
 11
0.2953069668
 21
0.0048229167
 31
0.0
  0
ELLIPSE
  5
81
330
1F
100
AcDbEntity
  8
OUTLINE
  6
Continuous
 62
     7
370
     5
100
AcDbEllipse
 10
0.35
 20
0.15
 30
0.0
 11
9.375
 21
0.0
 31
0.0
210
0.0
220
0.0
230
1.0
 40
0.6839733333
 41
0.0
 42
6.283184999999998
  0
MTEXT
  5
82
330
1F
100
AcDbEntity
  8
SECTION
 62
     7
100
AcDbMText
 10
-1.25
 20
3.703028466
 30
0.0
 40
0.125
 41
3.0
 71
     1
 72
     1
  1
UNDERMOUNT VANITY SINK 
  7
Plotter
 73
     1
 44
1.0
1001
ACAD
1000
MTEXTBEGIN
1070
    73
1070
     1
1070
    44
1040
1.0
1070
    74
1070
     0
1000
MTEXTEND
  0
MTEXT
  5
83
330
1F
100
AcDbEntity
  8
SECTION
 62
     7
100
AcDbMText
 10
-1.200654686450214
 20
4.377631653299999
 30
0.0
 40
0.3333333433
 41
2.5
 71
     1
 72
     1
  1
ULAD-1913
  7
Plotter
 73
     1
 44
1.0
1001
ACAD
1000
MTEXTBEGIN
1070
    73
1070
     1
1070
    44
1040
1.0
1070
    74
1070
     0
1000
MTEXTEND
  0
MTEXT
  5
84
330
1F
100
AcDbEntity
  8
SECTION
 62
     7
100
AcDbMText
 10
-1.5
 20
4.735
 30
0.0
 40
0.125
 41
3.5
 71
     1
 72
     1
  1
CUTOUT TEMPLATE FOR MODEL #: 
  7
Plotter
 73
     1
 44
1.0
1001
ACAD
1000
MTEXTBEGIN
1070
    73
1070
     1
1070
    44
1040
1.0
1070
    74
1070
     0
1000
MTEXTEND
  0
DIMENSION
  5
85
330
1F
100
AcDbEntity
  8
DIMENSION
  6
Continuous
 62
     5
370
     0
100
AcDbDimension
  2
*D2
 10
9.7178650282
 20
-6.823957319199999
 30
0.0
 11
0.3464325141
 21
-6.823957348499999
 31
0.0
 70
    32
 71
     5
 42
-1.0
  3
VlmDim2
100
AcDbAlignedDimension
 13
-9.025
 23
0.1500009849
 33
0.0
 14
9.7178650282
 24
-0.1001228046
 34
0.0
100
AcDbRotatedDimension
  0
DIMENSION
  5
91
330
1F
100
AcDbEntity
  8
DIMENSION
  6
Continuous
 62
     5
370
     0
100
AcDbDimension
  2
*D3
 10
-9.660416984599999
 20
-6.262249999999999
 30
0.0
 11
-9.660416666699999
 21
0.15
 31
0.0
 70
    32
 71
     5
 42
-1.0
 53
90.0
  3
VlmDim3
100
AcDbAlignedDimension
 13
0.35
 23
6.562249999999999
 33
0.0
 14
0.35
 24
-6.262249999999999
 34
0.0
 50
90.0
100
AcDbRotatedDimension
  0
LINE
  5
9D
330
1F
100
AcDbEntity
  8
SECTION
  6
Continuous
 62
     7
370
    13
100
AcDbLine
 10
-1.473171597999999
 20
-0.2615887223
 30
0.0
 11
-1.009759959099999
 21
0.2018229167
 31
0.0
  0
LINE
  5
9E
330
1F
100
AcDbEntity
  8
SECTION
  6
Continuous
 62
     7
370
    13
100
AcDbLine
 10
-1.4570818078
 20
-0.0784658295
 30
0.0
 11
-1.176793061599999
 21
0.2018229167
 31
0.0
  0
LINE
  5
9F
330
1F
100
AcDbEntity
  8
SECTION
  6
Continuous
 62
     7
370
    40
100
AcDbLine
 10
-1.6371241951
 20
-2.1275843697
 30
0.0
 11
-1.432313011699999
 21
0.2018229167
 31
0.0
  0
LINE
  5
A0
330
1F
100
AcDbEntity
  8
SECTION
  6
Continuous
 62
     7
370
    13
100
AcDbLine
 10
-1.4892613883
 20
-0.4447116151000001
 30
0.0
 11
-0.8427268565
 21
0.2018229167
 31
0.0
  0
LINE
  5
A1
330
1F
100
AcDbEntity
  8
SECTION
  6
Continuous
 62
     7
370
    25
100
AcDbLine
 10
-1.505351178499999
 20
-0.6278345079
 30
0.0
 11
-0.6756937539
 21
0.2018229167
 31
0.0
  0
LINE
  5
A2
330
1F
100
AcDbEntity
  8
SECTION
  6
Continuous
 62
     7
370
    25
100
AcDbLine
 10
-0.8166275488
 20
-0.2731770833
 30
0.0
 11
-0.3416275488
 21
0.2018229167
 31
0.0
  0
LINE
  5
A3
330
1F
100
AcDbEntity
  8
SECTION
  6
Continuous
 62
     7
370
    25
100
AcDbLine
 10
-0.974744279
 20
-0.2737885056
 30
0.0
 11
-0.4991328568000001
 21
0.2018229167
 31
0.0
  0
LINE
  5
A4
330
1F
100
AcDbEntity
  8
SECTION
  6
Continuous
 62
     7
370
    25
100
AcDbLine
 10
-0.6495944462
 20
-0.2731770833
 30
0.0
 11
-0.1745944462
 21
0.2018229167
 31
0.0
  0
ENDSEC
  0
SECTION
  2
OBJECTS
  0
DICTIONARY
  5
C
330
0
100
AcDbDictionary
281
     1
  3
ACAD_COLOR
350
6C
  3
ACAD_GROUP
350
D
  3
ACAD_LAYOUT
350
1A
  3
ACAD_MATERIAL
350
6B
  3
ACAD_MLINESTYLE
350
17
  3
ACAD_PLOTSETTINGS
350
19
  3
ACAD_PLOTSTYLENAME
350
E
  3
ACAD_TABLESTYLE
350
92
  3
ACAD_WIPEOUT_VARS
350
B3
  3
ACDBHEADERROUNDTRIPXREC
350
E2
  3
AcDbVariableDictionary
350
59
  3
DWGPROPS
350
E1
  0
DICTIONARY
  5
6C
102
{ACAD_REACTORS
330
C
102
}
330
C
100
AcDbDictionary
281
     1
  0
DICTIONARY
  5
D
102
{ACAD_REACTORS
330
C
102
}
330
C
100
AcDbDictionary
281
     1
  0
DICTIONARY
  5
1A
102
{ACAD_REACTORS
330
C
102
}
330
C
100
AcDbDictionary
281
     1
  3
Layout1
350
74
  3
Model
350
22
  0
DICTIONARY
  5
6B
102
{ACAD_REACTORS
330
C
102
}
330
C
100
AcDbDictionary
281
     1
  0
DICTIONARY
  5
17
102
{ACAD_REACTORS
330
C
102
}
330
C
100
AcDbDictionary
281
     1
  3
Standard
350
18
  0
DICTIONARY
  5
19
102
{ACAD_REACTORS
330
C
102
}
330
C
100
AcDbDictionary
281
     1
  0
ACDBDICTIONARYWDFLT
  5
E
102
{ACAD_REACTORS
330
C
102
}
330
C
100
AcDbDictionary
281
     1
  3
Normal
350
F
100
AcDbDictionaryWithDefault
340
F
  0
DICTIONARY
  5
92
102
{ACAD_REACTORS
330
C
102
}
330
C
100
AcDbDictionary
281
     1
  3
Standard
350
93
  0
WIPEOUTVARIABLES
  5
B3
102
{ACAD_REACTORS
330
C
102
}
330
C
100
AcDbWipeoutVariables
 70
     1
  0
DICTIONARY
  5
E2
102
{ACAD_REACTORS
330
C
102
}
330
C
100
AcDbDictionary
281
     1
  3
COLORDICT
350
E4
  3
MATERIALDICT
350
E3
  0
DICTIONARY
  5
59
102
{ACAD_REACTORS
330
C
102
}
330
C
100
AcDbDictionary
281
     1
  3
CTABLESTYLE
350
98
  3
DIMASSOC
350
A6
  3
HIDETEXT
350
5E
  3
PROJECTNAME
350
D5
  0
XRECORD
  5
E1
102
{ACAD_REACTORS
330
C
102
}
330
C
100
AcDbXrecord
280
     1
  1
DWGPROPS COOKIE
  2

  3

  4

  6

  7

  8
fottrem
  9

300
=
301
=
302
=
303
=
304
=
305
=
306
=
307
=
308
=
309
=
 40
0.0452092013888889
 41
2453353.508792488
 42
2456731.452792153
  1

 90
        0
  0
LAYOUT
  5
74
102
{ACAD_XDICTIONARY
360
E7
102
}
102
{ACAD_REACTORS
330
1A
102
}
330
1A
100
AcDbPlotSettings
  1

  2
None
  4

  6

 40
0.0
 41
0.0
 42
0.0
 43
0.0
 44
0.0
 45
0.0
 46
0.0
 47
0.0
 48
0.0
 49
0.0
140
0.0
141
0.0
142
1.0
143
1.0
 70
   544
 72
     0
 73
     0
 74
     0
  7

 75
    16
147
1.0
148
0.0
149
0.0
100
AcDbLayout
  1
Layout1
 70
     0
 71
     1
 10
0.0
 20
0.0
 11
0.0
 21
0.0
 12
0.0
 22
0.0
 32
0.0
 14
0.0
 24
0.0
 34
0.0
 15
0.0
 25
0.0
 35
0.0
146
0.0
 13
0.0
 23
0.0
 33
0.0
 16
1.0
 26
0.0
 36
0.0
 17
0.0
 27
1.0
 37
0.0
 76
     0
330
73
  0
LAYOUT
  5
22
102
{ACAD_XDICTIONARY
360
E5
102
}
102
{ACAD_REACTORS
330
1A
102
}
330
1A
100
AcDbPlotSettings
  1

  2
None
  4

  6

 40
0.0
 41
0.0
 42
0.0
 43
0.0
 44
0.0
 45
0.0
 46
0.0
 47
0.0
 48
0.0
 49
0.0
140
0.0
141
0.0
142
1.0
143
1.0
 70
 11936
 72
     0
 73
     0
 74
     0
  7

 75
     0
147
0.28088241027059
148
0.0
149
0.0
100
AcDbLayout
  1
Model
 70
     1
 71
     0
 10
0.0
 20
0.0
 11
0.0
 21
0.0
 12
0.0
 22
0.0
 32
0.0
 14
-9.978869047599999
 24
-6.886457348499999
 34
-1.0
 15
9.724999999999999
 25
6.562249999999999
 35
0.0
146
0.0
 13
0.0
 23
0.0
 33
0.0
 16
1.0
 26
0.0
 36
0.0
 17
0.0
 27
1.0
 37
0.0
 76
     0
330
1F
  0
MLINESTYLE
  5
18
102
{ACAD_REACTORS
330
17
102
}
330
17
100
AcDbMlineStyle
  2
STANDARD
 70
     0
  3

 62
     0
 51
90.0
 52
90.0
 71
     2
 49
0.5
 62
   256
  6
BYLAYER
 49
-0.5
 62
   256
  6
BYLAYER
  0
ACDBPLACEHOLDER
  5
F
102
{ACAD_REACTORS
330
E
102
}
330
E
  0
TABLESTYLE
  5
93
102
{ACAD_REACTORS
330
92
102
}
330
92
100
AcDbTableStyle
  3
Standard
 70
     0
 71
     0
 40
0.06
 41
0.06
280
     0
281
     0
  7
Standard
140
0.18
170
     2
 62
     0
 63
     7
283
     0
274
    -2
284
     1
 64
     0
275
    -2
285
     1
 65
     0
276
    -2
286
     1
 66
     0
277
    -2
287
     1
 67
     0
278
    -2
288
     1
 68
     0
279
    -2
289
     1
 69
     0
  7
Standard
140
0.25
170
     5
 62
     0
 63
     7
283
     0
274
    -2
284
     1
 64
     0
275
    -2
285
     1
 65
     0
276
    -2
286
     1
 66
     0
277
    -2
287
     1
 67
     0
278
    -2
288
     1
 68
     0
279
    -2
289
     1
 69
     0
  7
Standard
140
0.18
170
     5
 62
     0
 63
     7
283
     0
274
    -2
284
     1
 64
     0
275
    -2
285
     1
 65
     0
276
    -2
286
     1
 66
     0
277
    -2
287
     1
 67
     0
278
    -2
288
     1
 68
     0
279
    -2
289
     1
 69
     0
1001
ACAD
1000
AcRTDxfName
1000
TABLESTYLE
  0
XRECORD
  5
E4
102
{ACAD_REACTORS
330
E2
102
}
330
E2
100
AcDbXrecord
280
     1
340
6C
  0
XRECORD
  5
E3
102
{ACAD_REACTORS
330
E2
102
}
330
E2
100
AcDbXrecord
280
     1
340
6B
  0
DICTIONARYVAR
  5
98
102
{ACAD_REACTORS
330
59
102
}
330
59
100
DictionaryVariables
280
     0
  1
STANDARD
  0
DICTIONARYVAR
  5
A6
102
{ACAD_REACTORS
330
59
102
}
330
59
100
DictionaryVariables
280
     0
  1
2
  0
DICTIONARYVAR
  5
5E
102
{ACAD_REACTORS
330
59
102
}
330
59
100
DictionaryVariables
280
     0
  1
1
  0
DICTIONARYVAR
  5
D5
102
{ACAD_REACTORS
330
59
102
}
330
59
100
DictionaryVariables
280
     0
  1

  0
DICTIONARY
  5
E7
330
74
100
AcDbDictionary
280
     1
281
     1
  3
ACAD_XREC_ROUNDTRIP
360
E8
  0
DICTIONARY
  5
E5
330
22
100
AcDbDictionary
280
     1
281
     1
  3
ACAD_XREC_ROUNDTRIP
360
E6
  0
XRECORD
  5
E8
102
{ACAD_REACTORS
330
E7
102
}
330
E7
100
AcDbXrecord
280
     1
102
SHADEPLOT
 70
     0
102
SHADEPLOTRESLEVEL
 70
     2
102
SHADEPLOTCUSTOMDPI
 70
   300
  0
XRECORD
  5
E6
102
{ACAD_REACTORS
330
E5
102
}
330
E5
100
AcDbXrecord
280
     1
102
SHADEPLOT
 70
     0
102
SHADEPLOTRESLEVEL
 70
     2
102
SHADEPLOTCUSTOMDPI
 70
   300
  0
ENDSEC
  0
EOF
